DVDFab Forum - Waterworld - No DTS-HD Master/7.1 DTS:X for Extended Edition.

Announcement

Collapse
No announcement yet.

Waterworld - No DTS-HD Master/7.1 DTS:X for Extended Edition.

Collapse
X
  • Filter
  • Time
  • Show
Clear All
new posts

  • UHD Ripper Waterworld - No DTS-HD Master/7.1 DTS:X for Extended Edition.

    There's two editions on this UHD disc, the Theatrical and the Extended and DVDFab is only picking up DTS-HD Master/7.1 DTS:X for the theatrical and not the extended. Even the standard Blu-ray has DTS-HD Master for both so there should be no reason why the Extended Edition on the UHD disc shouldn't have DTS-HD Master/7.1 DTS:X except that it's not being properly decrypted. As you can see in the screen capture.


    Here's the entire UHD disc structure except for the M2TS files. LINK The dvdfab_internal.log file is in the root directory.

    Purchased at AMAZON
    Last edited by AcIDc0r3; 08-05-2019, 05:28 AM.

  • #2

    Comment


    • #3
      Hi,

      From the BDInfo, the extended edition has the DTS audio track only, but the normal version has the DTS:X audio track.

      Please open the disc with Passkey and check the media info of the extended version "00096.m2ts" from the disc directly.

      Download mediainfo tool from the link: https://mediaarea.net/en/MediaInfo

      Thanks!

      Wilson
      Please post your logs the default location is:
      For DVDFab9_Win7 & Win8 C:\Users\User Name\My Documents\DVDFab9\Log
      For DVDFab10_Win7 & Win8 C:\Users\User Name\My Documents\DVDFab10\Log
      For Mac: /User/User name/Documents/DVDFab10/Log
      Please use attachment button and attach your most recent, Internal log and post right here.
      If it's the burning issue, please also attach burn log.

      Thanks!

      Comment


      • #4
        Passkey isn't working, it completely destabilizes my computer and makes Explorer unresponsive and it forces me to perform a hard power shutdown.

        Comment


        • #5
          I had to install it on a different computer and this is what it has. As you can see it does have DTS-HD Master/7.1 DTS:X.

          General
          ID : 0 (0x0)
          Complete name : E:\BDMV\STREAM\00026.m2ts
          CompleteName_Last : E:\BDMV\STREAM\00096.m2ts
          Format : BDAV
          Format/Info : Blu-ray Video
          File size : 82.7 GiB
          Duration : 2 h 56 min
          Overall bit rate mode : Variable
          Overall bit rate : 67.2 Mb/s
          Maximum Overall bit rate : 109 Mb/s

          Video #1
          ID : 4113 (0x1011)
          Menu ID : 1 (0x1)
          Format : HEVC
          Format/Info : High Efficiency Video Coding
          Commercial name : HDR10
          Format profile : Main 10@L5.1@High
          Codec ID : 36
          Duration : 7 s 925 ms
          Width : 3 840 pixels
          Height : 2 160 pixels
          Display aspect ratio : 16:9
          Frame rate : 23.976 (24000/1001) FPS
          Color space : YUV
          Chroma subsampling : 4:2:0 (Type 2)
          Bit depth : 10 bits
          Writing library : ATEME Titan File 3.9.0 (4.9.0.0)
          Color range : Limited
          Color primaries : BT.2020
          Transfer characteristics : PQ
          Matrix coefficients : BT.2020 non-constant
          Mastering display color primaries : BT.709
          Mastering display luminance : min: 0.0050 cd/m2, max: 1000 cd/m2
          Maximum Content Light Level : 986 cd/m2
          Maximum Frame-Average Light Level : 180 cd/m2

          Video #2
          ID : 4113 (0x1011)
          Menu ID : 1 (0x1)
          Format : AVC
          Format/Info : Advanced Video Codec
          Format profile : High@L4.1
          Format settings : CABAC / 4 Ref Frames
          Format settings, CABAC : Yes
          Format settings, RefFrames : 4 frames
          Codec ID : 36
          Duration : 7 s 925 ms
          Bit rate mode : Variable
          Maximum bit rate : 35.0 Mb/s
          Width : 1 920 pixels
          Height : 1 080 pixels
          Display aspect ratio : 16:9
          Frame rate : 23.976 (24000/1001) FPS
          Color space : YUV
          Chroma subsampling : 4:2:0
          Bit depth : 8 bits
          Scan type : Progressive

          Audio #1
          ID : 4352 (0x1100)
          Menu ID : 1 (0x1)
          Format : DTS
          Format/Info : Digital Theater Systems
          Format profile : X / MA / Core
          Muxing mode : Stream extension
          Codec ID : 134
          Duration : 2 h 56 min
          Bit rate mode : Variable / Variable / Constant
          Bit rate : Unknown / Unknown / 1 509 kb/s
          Channel(s) : Object Based / 8 channels / 6 channels
          Channel positions : Object Based / Front: L C R, Side: L R, Back: L R, LFE / Front: L C R, Side: L R, LFE
          Sampling rate : / 48.0 kHz / 48.0 kHz
          Frame rate : 93.750 FPS (512 SPF)
          Bit depth : / 24 bits / 24 bits
          Compression mode : / Lossless / Lossy

          Audio #2
          ID : 4353 (0x1101)
          Menu ID : 1 (0x1)
          Format : DTS
          Format/Info : Digital Theater Systems
          Codec ID : 130
          Duration : 2 h 56 min
          Bit rate mode : Constant
          Bit rate : 768 kb/s
          Channel(s) : 6 channels
          Channel positions : Front: L C R, Side: L R, LFE
          Sampling rate : 48.0 kHz
          Frame rate : 93.750 FPS (512 SPF)
          Bit depth : 24 bits
          Compression mode : Lossy
          Stream size : 967 MiB (1%)

          Audio #3
          ID : 4354 (0x1102)
          Menu ID : 1 (0x1)
          Format : DTS
          Format/Info : Digital Theater Systems
          Codec ID : 130
          Duration : 2 h 56 min
          Bit rate mode : Constant
          Bit rate : 768 kb/s
          Channel(s) : 6 channels
          Channel positions : Front: L C R, Side: L R, LFE
          Sampling rate : 48.0 kHz
          Frame rate : 93.750 FPS (512 SPF)
          Bit depth : 24 bits
          Compression mode : Lossy
          Stream size : 967 MiB (1%)

          Audio #4
          ID : 4355 (0x1103)
          Menu ID : 1 (0x1)
          Format : DTS
          Format/Info : Digital Theater Systems
          Codec ID : 130
          Duration : 2 h 56 min
          Bit rate mode : Constant
          Bit rate : 768 kb/s
          Channel(s) : 6 channels
          Channel positions : Front: L C R, Side: L R, LFE
          Sampling rate : 48.0 kHz
          Frame rate : 93.750 FPS (512 SPF)
          Bit depth : 24 bits
          Compression mode : Lossy
          Stream size : 967 MiB (1%)

          Audio #5
          ID : 4356 (0x1104)
          Menu ID : 1 (0x1)
          Format : DTS
          Format/Info : Digital Theater Systems
          Codec ID : 130
          Duration : 2 h 56 min
          Bit rate mode : Constant
          Bit rate : 768 kb/s
          Channel(s) : 2 channels
          Channel positions : Front: L R
          Sampling rate : 48.0 kHz
          Frame rate : 93.750 FPS (512 SPF)
          Bit depth : 24 bits
          Compression mode : Lossy
          Stream size : 967 MiB (1%)

          Text #1
          ID : 4768 (0x12A0)
          Menu ID : 1 (0x1)
          Format : PGS
          Codec ID : 144

          Text #2
          ID : 4769 (0x12A1)
          Menu ID : 1 (0x1)
          Format : PGS
          Codec ID : 144

          Text #3
          ID : 4770 (0x12A2)
          Menu ID : 1 (0x1)
          Format : PGS
          Codec ID : 144

          Text #4
          ID : 4771 (0x12A3)
          Menu ID : 1 (0x1)
          Format : PGS
          Codec ID : 144

          Text #5
          ID : 4772 (0x12A4)
          Menu ID : 1 (0x1)
          Format : PGS
          Codec ID : 144

          Text #6
          ID : 4773 (0x12A5)
          Menu ID : 1 (0x1)
          Format : PGS
          Codec ID : 144

          Text #7
          ID : 4774 (0x12A6)
          Menu ID : 1 (0x1)
          Format : PGS
          Codec ID : 144

          Text #8
          ID : 4775 (0x12A7)
          Menu ID : 1 (0x1)
          Format : PGS
          Codec ID : 144

          Text #9
          ID : 4776 (0x12A8)
          Menu ID : 1 (0x1)
          Format : PGS
          Codec ID : 144

          Text #10
          ID : 4777 (0x12A9)
          Menu ID : 1 (0x1)
          Format : PGS
          Codec ID : 144

          Comment


          • #6
            Hi,

            You need to check the media info of 00096.m2ts (it's the extended version), not the 00026.m2ts.


            Click image for larger version  Name:	8-5-2019 6-29-32 PM.png Views:	1 Size:	35.2 KB ID:	370896


            Click image for larger version

Name:	image_21609.jpg
Views:	2
Size:	24.2 KB
ID:	370894





            Thanks!

            Wilson
            Attached Files
            Please post your logs the default location is:
            For DVDFab9_Win7 & Win8 C:\Users\User Name\My Documents\DVDFab9\Log
            For DVDFab10_Win7 & Win8 C:\Users\User Name\My Documents\DVDFab10\Log
            For Mac: /User/User name/Documents/DVDFab10/Log
            Please use attachment button and attach your most recent, Internal log and post right here.
            If it's the burning issue, please also attach burn log.

            Thanks!

            Comment


            • #7
              Wilson.Wang Your evidently correct, even though I can't check because Passkey completely destabilized my computer and I have to restore Windows due to instability issues. I found this on a review site about the UHD disc.
              "The UHD disc does offer under the "Bonus" tab the opportunity to watch the film in its extended version (2:56:01) in 1080p/SDR/DTS 5.1 only, not in 4K/HDR."
              What a let down, I wouldn't have even bought this had I previously known.

              Comment

              Working...
              X