DVDFab Forum - Avi Audio issues

Announcement

Collapse
No announcement yet.

Avi Audio issues

Collapse
X
  • Filter
  • Time
  • Show
Clear All
new posts

  • Avi Audio issues

    I have a bunch of movies that I created years ago with DVDFAB with .avi extensions. I copy them to the DMS internal drive but no audio plays
    at all. They play fine on my PC. Any ideas?
    Thanks

  • #2
    What are you using to play them on the PC? Check your audio settings on the DMS, Passthrough may not work with an AVI file. Check one of the ones that won't play with MediaInfo.

    I don't have any AVIs on mine but I will make a short one and try it.
    Supplying DVDFab Logs in the Forum ...........................User Manual PDF for DVDFab v11................................ Guide: Using Images in Posts
    Supplying DMS Logs to Developers.............

    Comment


    • #3
      They play with Windows 10 Movies and TV as well as Windows Media Player,

      I'm pretty sure passthrough is off. I tried it set to Auto as well

      Here is the MEdiainfo results for one of the movies

      Complete name K:\The Monuments Men(2014)\The Monuments Men(2014).Title1.avi
      Format : AVI
      Format/Info : Audio Video Interleave
      Format profile : OpenDML
      File size : 1.64 GiB
      Duration : 1 h 58 min
      Overall bit rate : 1 987 kb/s
      Movie name : THE_MONUMENTS_MEN.Title1
      Writing application : Lavf54.63.104
      Original source form/Name : THE_MONUMENTS_MEN

      Video
      ID : 0
      Format : MPEG-4 Visual
      Format profile : Advanced Simple@L5
      Format settings : BVOP2
      Format settings, BVOP : 2
      Format settings, QPel : No
      Format settings, GMC : No warppoints
      Format settings, Matrix : Default (MPEG)
      Muxing mode : Packed bitstream
      Codec ID : XVID
      Codec ID/Hint : XviD
      Duration : 1 h 58 min
      Bit rate : 1 527 kb/s
      Width : 720 pixels
      Height : 304 pixels
      Display aspect ratio : 2.35:1
      Frame rate : 23.976 (24000/1001) FPS
      Original frame rate : 23.976 (23976/1000) FPS
      Color space : YUV
      Chroma subsampling : 4:2:0
      Bit depth : 8 bits
      Scan type : Progressive
      Compression mode : Lossy
      Bits/(Pixel*Frame) : 0.291
      Stream size : 1.26 GiB (77%)
      Writing library : XviD 64

      Audio
      ID : 1
      Format : AC-3
      Format/Info : Audio Coding 3
      Commercial name : Dolby Digital
      Codec ID : 2000
      Duration : 1 h 58 min
      Bit rate mode : Constant
      Bit rate : 448 kb/s
      Channel(s) : 6 channels
      Channel layout : L R C LFE Ls Rs
      Sampling rate : 48.0 kHz
      Frame rate : 31.250 FPS (1536 SPF)
      Bit depth : 16 bits
      Compression mode : Lossy
      Stream size : 379 MiB (23%)
      Alignment : Aligned on interleaves
      Interleave, duration : 32 ms (0.77 video frame)
      Service kind : Complete Main

      Last edited by Hunter1955; 08-30-2019, 03:35 AM.

      Comment


      • #4
        My old avi's work perfectly, but pass through does not as I'm unable to adjust volume. A speaker plus x appears plus something about pass through either not working or unable to perform task.
        Viking lost down under

        Comment


        • #5
          It's really strange. I have my DMS going through an HDMI hub and ISO's play fine. When I try an AVI movie the sound doesn't play.
          While the AVI is playing if I switch ports on the hub to a different port and then back the sound starts playing. If I stop and restart the movie I have the same problem.
          I tried moving the DMS to a different port on the hub nothing changes.

          Comment

          Working...
          X