DVDFab Forum - fabCore.exe crash - codecs.dll fault

Announcement

Collapse
No announcement yet.

fabCore.exe crash - codecs.dll fault

Collapse
This topic is closed.
X
X
  • Filter
  • Time
  • Show
Clear All
new posts

  • fabCore.exe crash - codecs.dll fault

    Hi, I downloaded the trial and attempted to use file to PVP, but while the DVDfab performs the task, the fabCore.exe crashes and whole process fails...

    I also have a problem with the whole program crashing when attempting to add or remove sub title files via the External Subtitle Settings menu.

    There's also a third issue not included in the thread's title. I can't seem to get the program to allow me to create a profile for my PVP when clicking 'New'.

    Firstly, DVDfab won't allow me to select anyting in the 'Moblie Device' dropdown. Or better said, there's nothing in there and clicking the dropdown does nothing. I can select an image and type something into 'Show Text' as well as "Tip Text", but the program appears to ignor all that without a Mobile Device showing in the first dropdown and clicking OK fails to create anything.

    Are there any of you having these issues or is it that I perhaps have a bad installation? Or maybe this only happens with the trial?

  • #2
    Please look over the Help Us Help You document and post the log files. You can just attach them to a post.
    Supplying DVDFab Logs in the Forum ...........................User Manual PDF for DVDFab v11................................ Guide: Using Images in Posts
    Supplying DMS Logs to Developers.............

    Comment


    • #3
      As Signals, said please provide us with more info so that we can help.

      The trial is fully operational so that will not be an issue.

      One thing though that I would like you to try is to uninstall Fab, make sure that you download the latest beta and install it and run it as "Administrator" and report back the results.
      "Beer is living proof that God loves us and wants us to be happy." - Benjamin Franklin 1706-1790
      "I NEVER BURN ANYTHING.... I just transcode my titles and play the files over a network on Media Players, hell of a lot easier!!!

      Comment


      • #4
        Ok as per the help us help you doc. This version is DVDFab6120.exe. Sent error Log. The attached files are all I get from attempting to add or remove .srt files from a session.
        Attached Files

        Comment


        • #5
          Did you try the "administrator" option and what EXACT profile are you using?
          "Beer is living proof that God loves us and wants us to be happy." - Benjamin Franklin 1706-1790
          "I NEVER BURN ANYTHING.... I just transcode my titles and play the files over a network on Media Players, hell of a lot easier!!!

          Comment


          • #6
            Originally posted by GregiBoy View Post
            Did you try the "administrator" option and what EXACT profile are you using?
            This is the attempt to convert the file> The user name on the PC is the admin, I've tried with several profiles, this one was the PVP - Archos 605 as the player I'm thinking to get this software for will be the Archos 5 Android. The program got to about 80% and simply closed. Here's the log and error report for this session.
            Attached Files
            Last edited by infrablade; 10-25-2009, 09:26 PM.

            Comment


            • #7
              1. What are the details of the file that you are trying to convert? Download and inspect the file with MediaInfo. I presume that you are trying to use "File to Mobile"?
              2. What is your operating system. Full details please.
              3. I said Administrator, not admin. To do this right click on the Fab icon and then "Run as Administrator"
              "Beer is living proof that God loves us and wants us to be happy." - Benjamin Franklin 1706-1790
              "I NEVER BURN ANYTHING.... I just transcode my titles and play the files over a network on Media Players, hell of a lot easier!!!

              Comment


              • #8
                Originally posted by GregiBoy View Post
                1. What are the details of the file that you are trying to convert? Download and inspect the file with MediaInfo. I presume that you are trying to use "File to Mobile"?
                2. What is your operating system. Full details please.
                3. I said Administrator, not admin. To do this right click on the Fab icon and then "Run as Administrator"
                I could've sworn I said I was using 'file to'... attempting to work with PVP profiles...

                Originally posted by GregiBoy View Post
                "Run as Administrator"
                XP Home doesn't allow this action

                DVDFab is the all-in-one software package for copying Blu-ray/DVD and converting video file.
                ---------------------------
                Unable to log on:

                Logon failure: unknown user name or bad password.


                ---------------------------

                The administrator account didn't even have a password and this error still occurs. I gave it a PW'd and that still don't work.


                All this information was already in the attached files requested by signals, but here you go...

                More Details:


                Windows XP Home Edition Version 2002 SP3

                AMD Athlon 64 X2 dual core 4200+
                2.21 Ghz 2.87 GB or RAM

                Physical Address Extention

                More infor still: Mind you this is only for this particular incident; it's the same no matter what files I've chosen and I've done serveral now.

                General
                Complete name : D:\MoviE Kraze\MovieZ\Need Resize\Ghost Busters\Ghost Busters 1984.mp4
                Format : MPEG-4
                Format profile : JVT
                Codec ID : avc1
                File size : 1.50 GiB
                Duration : 1h 45mn
                Overall bit rate : 2 048 Kbps
                Encoded date : UTC 2009-06-14 22:03:41
                Tagged date : UTC 2009-06-14 22:03:41

                Video
                ID : 1
                Format : AVC
                Format/Info : Advanced Video Codec
                Format profile : High@L4.1
                Format settings, CABAC : Yes
                Format settings, ReFrames : 3 frames
                Codec ID : avc1
                Codec ID/Info : Advanced Video Coding
                Duration : 1h 45mn
                Bit rate mode : Variable
                Bit rate : 1 694 Kbps
                Maximum bit rate : 4 032 Kbps
                Width : 980 pixels
                Height : 416 pixels
                Display aspect ratio : 2.35:1
                Frame rate mode : Constant
                Frame rate : 23.976 fps
                Resolution : 24 bits
                Colorimetry : 4:2:0
                Scan type : Progressive
                Bits/(Pixel*Frame) : 0.173
                Stream size : 1.24 GiB (83%)
                Writing library : x264 core 67 r1165M 6841c5e
                Encoding settings : cabac=1 / ref=3 / deblock=1:0:0 / analyse=0x3:0x113 / me=umh / subme=7 / psy_rd=1.0:0.0 / mixed_ref=1 / me_range=12 / chroma_me=1 / trellis=2 / 8x8dct=1 / cqm=0 / deadzone=21,11 / chroma_qp_offset=-2 / threads=3 / nr=0 / decimate=1 / mbaff=0 / bframes=3 / b_pyramid=0 / b_adapt=2 / b_bias=0 / direct=3 / wpredb=1 / keyint=250 / keyint_min=25 / scenecut=40 / rc=2pass / bitrate=1694 / ratetol=1.0 / qcomp=0.50 / qpmin=10 / qpmax=51 / qpstep=4 / cplxblur=20.0 / qblur=0.5 / vbv_maxrate=24000 / vbv_bufsize=24000 / ip_ratio=1.10 / pb_ratio=1.10 / aq=1:1.00
                Encoded date : UTC 2009-06-14 22:03:41
                Tagged date : UTC 2009-06-14 22:31:38

                Audio #1
                ID : 2
                Format : AAC
                Format/Info : Advanced Audio Codec
                Format version : Version 4
                Format profile : LC
                Format settings, SBR : No
                Codec ID : 40
                Duration : 1h 45mn
                Bit rate mode : Variable
                Bit rate : 128 Kbps
                Maximum bit rate : 164 Kbps
                Channel(s) : 2 channels
                Channel positions : L R
                Sampling rate : 48.0 KHz
                Resolution : 16 bits
                Stream size : 96.3 MiB (6%)
                Encoded date : UTC 2009-06-14 22:28:46
                Tagged date : UTC 2009-06-14 22:31:38

                Audio #2
                ID : 3
                Format : AAC
                Format/Info : Advanced Audio Codec
                Format version : Version 4
                Format profile : LC
                Format settings, SBR : Yes
                Format settings, PS : No
                Codec ID : 40
                Duration : 1h 45mn
                Bit rate mode : Variable
                Bit rate : 221 Kbps
                Maximum bit rate : 269 Kbps
                Channel(s) : 6 channels
                Channel positions : Front: L C R, Rear: L R, LFE
                Sampling rate : 48.0 KHz
                Resolution : 16 bits
                Stream size : 166 MiB (11%)
                Encoded date : UTC 2009-06-14 22:29:56
                Tagged date : UTC 2009-06-14 22:31:38


                -------------------------------------------

                Race To Witch Mountain.mp4
                Format : MPEG-4
                Format profile : Base Media
                Codec ID : isom
                File size : 1.40 GiB
                Duration : 1h 38mn
                Overall bit rate : 2 043 Kbps
                Encoded date : UTC 2009-07-16 17:00:18
                Tagged date : UTC 2009-07-16 17:00:18

                Video
                ID : 1
                Format : AVC
                Format/Info : Advanced Video Codec
                Format profile : Main@L4.1
                Format settings, CABAC : Yes
                Format settings, ReFrames : 4 frames
                Codec ID : avc1
                Codec ID/Info : Advanced Video Coding
                Duration : 1h 38mn
                Bit rate mode : Variable
                Bit rate : 1 731 Kbps
                Maximum bit rate : 10.8 Mbps
                Width : 1 280 pixels
                Height : 544 pixels
                Display aspect ratio : 2.35:1
                Frame rate mode : Constant
                Frame rate : 23.976 fps
                Resolution : 24 bits
                Colorimetry : 4:2:0
                Scan type : Progressive
                Bits/(Pixel*Frame) : 0.104
                Stream size : 1.19 GiB (85%)
                Writing library : x264 core 68 r1181M 49bf767
                Encoding settings : cabac=1 / ref=4 / deblock=1:0:0 / analyse=0x1:0x111 / me=umh / subme=8 / psy_rd=1.0:0.0 / mixed_ref=1 / me_range=16 / chroma_me=1 / trellis=2 / 8x8dct=0 / cqm=0 / deadzone=21,11 / chroma_qp_offset=-2 / threads=3 / nr=0 / decimate=1 / mbaff=0 / bframes=3 / b_pyramid=0 / b_adapt=2 / b_bias=0 / direct=1 / wpredb=1 / keyint=250 / keyint_min=25 / scenecut=40 / rc=2pass / bitrate=1731 / ratetol=1.0 / qcomp=0.60 / qpmin=10 / qpmax=51 / qpstep=4 / cplxblur=20.0 / qblur=0.5 / ip_ratio=1.40 / pb_ratio=1.30 / aq=1:1.00
                Encoded date : UTC 2009-07-16 00:30:33
                Tagged date : UTC 2009-07-16 17:00:58

                Audio
                ID : 2
                Format : AAC
                Format/Info : Advanced Audio Codec
                Format version : Version 4
                Format profile : LC
                Format settings, SBR : No
                Codec ID : 40
                Duration : 1h 38mn
                Bit rate mode : Variable
                Bit rate : 308 Kbps
                Maximum bit rate : 406 Kbps
                Channel(s) : 6 channels
                Channel positions : Front: L C R, Rear: L R, LFE
                Sampling rate : 48.0 KHz
                Resolution : 16 bits
                Stream size : 217 MiB (15%)
                Encoded date : UTC 2009-07-16 17:00:51
                Tagged date : UTC 2009-07-16 17:00:58

                -------------------------------------------

                Ong Bak 2.mp4
                Format : MPEG-4
                Format profile : Base Media
                Codec ID : isom
                File size : 1.40 GiB
                Duration : 1h 37mn
                Overall bit rate : 2 057 Kbps
                Encoded date : UTC 2009-05-15 09:23:36
                Tagged date : UTC 2009-05-15 09:23:36

                Video
                ID : 1
                Format : AVC
                Format/Info : Advanced Video Codec
                Format profile : High@L4.1
                Format settings, CABAC : Yes
                Format settings, ReFrames : 3 frames
                Codec ID : avc1
                Codec ID/Info : Advanced Video Coding
                Duration : 1h 37mn
                Bit rate mode : Variable
                Bit rate : 1 697 Kbps
                Maximum bit rate : 4 605 Kbps
                Width : 1 280 pixels
                Height : 544 pixels
                Display aspect ratio : 2.35:1
                Frame rate mode : Constant
                Frame rate : 24.000 fps
                Resolution : 24 bits
                Colorimetry : 4:2:0
                Scan type : Progressive
                Bits/(Pixel*Frame) : 0.102
                Stream size : 1.16 GiB (82%)
                Writing library : x264 core 67 r1148M 400740b
                Encoding settings : cabac=1 / ref=3 / deblock=1:0:0 / analyse=0x3:0x113 / me=umh / subme=7 / psy_rd=1.0:0.0 / mixed_ref=1 / me_range=16 / chroma_me=1 / trellis=2 / 8x8dct=1 / cqm=0 / deadzone=21,11 / chroma_qp_offset=-2 / threads=3 / nr=0 / decimate=1 / mbaff=0 / bframes=3 / b_pyramid=0 / b_adapt=2 / b_bias=0 / direct=1 / wpredb=1 / keyint=250 / keyint_min=25 / scenecut=40 / rc=2pass / bitrate=1697 / ratetol=1.0 / qcomp=0.50 / qpmin=10 / qpmax=51 / qpstep=4 / cplxblur=20.0 / qblur=0.5 / ip_ratio=1.10 / pb_ratio=1.10 / aq=1:1.00
                Encoded date : UTC 2009-05-15 01:26:59
                Tagged date : UTC 2009-05-15 09:25:10

                Audio
                ID : 2
                Format : AAC
                Format/Info : Advanced Audio Codec
                Format version : Version 4
                Format profile : LC
                Format settings, SBR : No
                Codec ID : 40
                Duration : 1h 37mn
                Bit rate mode : Variable
                Bit rate : 352.8 Kbps
                Maximum bit rate : 485 Kbps
                Channel(s) : 6 channels
                Channel positions : Front: L C R, Rear: L R, LFE
                Sampling rate : 48.0 KHz
                Resolution : 16 bits
                Stream size : 249 MiB (17%)
                Encoded date : UTC 2009-05-15 09:24:48
                Tagged date : UTC 2009-05-15 09:25:10

                ........................................

                You still require More?
                Last edited by infrablade; 10-25-2009, 10:31 PM.

                Comment


                • #9
                  Crash report with DrWatson and Log files

                  Codec.dll commits access violation

                  Interestingly, at the same time this crash occurs, my PCs MagicJack restarts. I removed the device just to see if the crash would still happen and it does. This issue found in the latest release DVDFab6125.exe (Under trial)

                  File:Ong Bak 2.mp4

                  Ong Bak 2.mp4
                  Format : MPEG-4
                  Format profile : Base Media
                  Codec ID : isom
                  File size : 1.40 GiB
                  Duration : 1h 37mn
                  Overall bit rate : 2 057 Kbps
                  Encoded date : UTC 2009-05-15 09:23:36
                  Tagged date : UTC 2009-05-15 09:23:36

                  Video
                  ID : 1
                  Format : AVC
                  Format/Info : Advanced Video Codec
                  Format profile : High@L4.1
                  Format settings, CABAC : Yes
                  Format settings, ReFrames : 3 frames
                  Codec ID : avc1
                  Codec ID/Info : Advanced Video Coding
                  Duration : 1h 37mn
                  Bit rate mode : Variable
                  Bit rate : 1 697 Kbps
                  Maximum bit rate : 4 605 Kbps
                  Width : 1 280 pixels
                  Height : 544 pixels
                  Display aspect ratio : 2.35:1
                  Frame rate mode : Constant
                  Frame rate : 24.000 fps
                  Resolution : 24 bits
                  Colorimetry : 4:2:0
                  Scan type : Progressive
                  Bits/(Pixel*Frame) : 0.102
                  Stream size : 1.16 GiB (82%)
                  Writing library : x264 core 67 r1148M 400740b
                  Encoding settings : cabac=1 / ref=3 / deblock=1:0:0 / analyse=0x3:0x113 / me=umh / subme=7 / psy_rd=1.0:0.0 / mixed_ref=1 / me_range=16 / chroma_me=1 / trellis=2 / 8x8dct=1 / cqm=0 / deadzone=21,11 / chroma_qp_offset=-2 / threads=3 / nr=0 / decimate=1 / mbaff=0 / bframes=3 / b_pyramid=0 / b_adapt=2 / b_bias=0 / direct=1 / wpredb=1 / keyint=250 / keyint_min=25 / scenecut=40 / rc=2pass / bitrate=1697 / ratetol=1.0 / qcomp=0.50 / qpmin=10 / qpmax=51 / qpstep=4 / cplxblur=20.0 / qblur=0.5 / ip_ratio=1.10 / pb_ratio=1.10 / aq=1:1.00
                  Encoded date : UTC 2009-05-15 01:26:59
                  Tagged date : UTC 2009-05-15 09:25:10

                  Audio
                  ID : 2
                  Format : AAC
                  Format/Info : Advanced Audio Codec
                  Format version : Version 4
                  Format profile : LC
                  Format settings, SBR : No
                  Codec ID : 40
                  Duration : 1h 37mn
                  Bit rate mode : Variable
                  Bit rate : 352.8 Kbps
                  Maximum bit rate : 485 Kbps
                  Channel(s) : 6 channels
                  Channel positions : Front: L C R, Rear: L R, LFE
                  Sampling rate : 48.0 KHz
                  Resolution : 16 bits
                  Stream size : 249 MiB (17%)
                  Encoded date : UTC 2009-05-15 09:24:48
                  Tagged date : UTC 2009-05-15 09:25:10
                  Attached Files

                  Comment

                  Working...
                  X